#TITLE:shukan sentimental;
#SUBTITLE:Expi3nze & sdo;
#ARTIST:Scandal;
#TITLETRANSLIT:;
#SUBTITLETRANSLIT:;
#ARTISTTRANSLIT:;
#CREDIT:;
#BANNER:bn.png;
#BACKGROUND:bg.png;
#LYRICSPATH:;
#CDTITLE:cdtitle.png;
#MUSIC:shukan sentimental .mp3;
#OFFSET:-0.217;
#SAMPLESTART:50.217;
#SAMPLELENGTH:23.929;
#SELECTABLE:YES;
#BPMS:0.000=168.000,42.500=84.000,43.000=336.000,44.000=168.000,72.000=336.128,72.250=84.011,72.375=168.064,72.500=336.128,72.750=84.011,72.875=168.064,73.000=336.128,73.250=84.011,73.375=168.064,73.500=84.000,74.000=336.000,75.000=84.000,75.250=168.021,75.500=336.043,76.000=168.000,109.000=84.000,109.250=336.043,109.750=168.021,110.000=168.000,111.000=84.000,111.250=336.043,111.750=168.021,112.000=168.000,113.000=84.000,113.250=336.043,113.750=168.021,114.000=168.000,138.000=84.000,138.333=336.000,139.000=168.000,167.500=84.000,167.833=336.128,168.000=335.957,168.500=84.000,168.833=336.128,169.000=335.957,169.500=84.000,169.833=336.128,170.000=335.957,170.500=168.000,199.500=84.000,199.833=336.128,200.000=335.957,200.500=84.000,200.833=336.128,201.000=335.957,201.500=168.000,236.000=336.128,236.250=84.011,236.375=168.064,236.500=336.128,236.750=84.011,236.875=168.064,237.000=84.000,237.333=336.000,238.000=336.128,238.250=84.011,238.375=168.064,238.500=84.000,238.833=336.128,239.000=335.957,239.500=84.000,239.833=336.128,240.000=336.014,240.750=84.011,240.875=168.064,241.000=84.000,241.333=336.000,242.000=168.000,242.500=84.000,243.000=336.000,244.000=84.000,257.500=168.000,258.000=84.000,258.333=336.000,259.000=84.000,259.333=336.000,260.000=168.000,262.000=336.000,263.000=168.000,285.000=84.000,285.333=336.000,286.000=168.000,313.000=336.128,313.250=84.011,313.375=167.979,313.500=336.128,313.750=84.011,313.875=167.979,314.000=168.000,315.000=336.128,315.250=84.011,315.375=167.979,315.500=336.128,315.750=84.011,315.875=167.979,316.000=168.000,317.000=336.128,317.250=84.011,317.375=167.979,317.500=336.128,317.750=84.011,317.875=167.979,318.000=168.000,319.000=336.128,319.250=84.011,319.375=167.996,320.000=336.000,321.000=168.000;
#STOPS:;
#BGCHANGES:;
// cache tags:
#FIRSTBEAT:1.000;
#LASTBEAT:321.375;
#SONGFILENAME:Songs/SDO pack 2/shukan sentimental (Scandal)/1.sm;
#HASMUSIC:1;
#HASBANNER:1;
#MUSICLENGTH:120.982;
// end cache tags

//---------------dance-single - ----------------
#NOTES:
     dance-single:
     :
     Hard:
     22:
     1.000,1.000,1.000,0.785,0.132,573.000,371.000,95.000,0.000,152.000:
0000
0000
0000
0000
0000
0000
0000
0000
0020
0000
0000
0000
0000
0000
0000
0000
0000
0000
0000
0000
0000
0000
0000
0000
0000
0000
0000
0000
0000
0000
0000
0030
,
2002
0000
0000
0000
0100
0000
0000
0000
0100
0000
0000
3003
0220
0000
0001
0000
1000
0000
0000
0000
0001
0000
0000
0330
2002
0000
0000
0000
0100
0000
0000
0000
,
0100
0000
0000
3003
0220
0000
0000
0000
0001
0000
0000
0000
0001
0000
0000
0330
1000
0000
0100
0000
0011
0000
0000
0000
1100
0000
0000
0000
0011
0000
0000
0000
,
1100
0011
1100
1100
0011
0000
0110
0101
,
1010
1001
1100
0001
0110
0110
1001
1001
,
0021
0000
0000
0000
0000
0000
0000
0030
1100
0000
0000
0000
0011
0000
0000
0000
1000
0000
0000
0000
0101
0000
0000
0000
1010
0000
0000
0000
0202
0000
0000
0000
,
0000
0000
0000
0303
1010
0000
0000
0000
0011
0000
0000
0000
1100
0000
0000
0000
1001
0000
0000
0000
1100
0000
0000
0000
0011
0000
0000
0000
0101
0000
0000
0000
,
1010
0011
1100
0011
1100
0000
0110
1001
,
0110
1001
0110
0001
1100
0011
1010
0101
,
2010
0000
0100
0000
0001
0000
0001
0000
0100
0000
0010
0000
0100
0002
0000
0000
,
0100
0000
0000
0000
0000
0000
0000
0000
0010
0000
0000
0000
0000
0000
0000
3003
0110
0000
0000
0000
0220
0000
0000
0000
0000
0000
0000
0000
0000
0000
0000
0330
,
1001
0000
1101
0000
1011
0011
1110
1100
,
0111
0011
1101
1100
0011
1100
0101
1010
,
0111
0000
1101
0000
1011
0000
1100
1100
,
1011
0000
1011
0000
1101
1100
1011
0000
,
1110
0000
0111
0000
1100
0011
1101
0011
,
1101
1100
1011
0000
1110
0000
1011
0000
,
1110
0000
1110
0000
0111
0000
1100
0011
,
1110
0000
0000
0000
1110
0000
0000
0000
0111
0000
0000
0000
0112
0000
0000
0000
0000
0000
0000
0000
0000
0000
0000
0003
0200
0000
0010
0000
0000
0000
0010
0300
,
1001
0000
0011
0000
1100
1100
0011
1100
,
0001
1100
0011
1000
0101
0101
1010
1100
,
0021
0000
0000
0000
0000
0000
0000
0030
0101
0000
0000
0000
0000
0000
0000
0000
1010
0000
0000
0000
0011
0000
0000
0000
1100
0000
0000
0000
2001
0000
0000
0000
,
0100
0000
0000
3000
0011
0000
0000
0000
0101
0000
0000
0000
0010
0000
0000
0000
1100
0000
0000
0000
1100
0000
0000
0000
0101
0000
0000
0000
0000
0000
0000
0000
,
1100
0000
0011
0000
1010
1100
0011
0101
,
0000
0000
0000
0000
1100
0000
0000
0000
1100
0000
0000
0000
0011
0000
0000
0000
0011
0000
0000
0000
2100
0000
0000
0000
0110
0000
0000
0000
0110
0000
0000
3000
,
0012
0000
0000
0000
1100
0000
0000
0000
0110
0000
0000
0000
0110
0000
0000
0003
1200
0000
0000
0000
1010
0000
0000
0000
0011
0000
0000
0300
0021
0000
0000
0000
,
0000
0000
0000
0000
1100
0000
0000
0000
1100
0000
0000
0000
0001
0000
0000
0000
1100
0000
0000
0000
1100
0000
0000
0030
0101
0000
0000
0000
0000
0000
0000
0000
,
1100
0000
0000
0000
1100
0000
0000
0000
0002
0000
0100
0000
0000
0000
0000
0003
1010
0000
0000
0000
1010
0000
0000
0000
0200
0000
0001
0000
0000
0000
0000
0300
,
0011
0000
0000
0000
0011
0000
0000
0000
2000
0000
0010
0000
0000
0000
0000
3000
0101
0000
0000
0000
0011
0000
0000
0000
1100
0000
0000
0000
1010
0000
0000
0000
,
0101
0000
0000
0010
1100
0000
0001
0000
0110
0000
0110
0000
1100
0000
0011
0000
,
0000
1100
1100
0001
1100
1100
0011
1000
,
0022
0000
0000
0000
0000
0000
0000
0000
1100
0000
0000
0033
2200
0000
0000
0000
0001
0000
0000
3300
0022
0000
0000
0000
1000
0000
0000
0000
1000
0000
0000
0033
,
2200
0000
0000
0000
0000
0000
0000
0000
0011
0000
0000
3300
0022
0000
0000
0000
0100
0000
0000
0033
2200
0000
0000
0000
0010
0000
0000
0000
0010
0000
0000
3300
,
0021
0000
0000
0000
0001
0000
0000
0000
1100
0000
0000
0000
0001
0000
0000
0000
1100
0000
0000
0000
0001
0000
0000
0030
1100
0000
0000
0000
0022
0000
0000
0000
,
0000
0000
0000
0033
1100
0000
0000
0000
0011
0000
0000
0000
1100
0000
0000
0000
0022
0000
0000
0000
0000
0000
0000
0033
1100
0000
0000
0000
0000
0000
0000
0000
,
0011
0100
1101
0001
0111
1000
0111
0010
,
1101
1000
0111
0001
1110
0100
1011
0010
,
1110
0001
1110
0001
0111
1000
0111
1000
,
1101
0010
1101
0010
1011
0100
1011
0100
,
0022
0000
0000
0000
0000
0000
0000
0000
1000
0000
0000
0000
1000
0000
0000
0033
0100
0000
0000
0000
0010
0000
0000
0000
2200
0000
0000
0000
0001
0000
0000
3300
,
0022
0000
0000
0000
0000
0000
0000
0033
2200
0000
0000
0000
0010
0000
0000
3300
0022
0000
0000
0000
0100
0000
0000
0033
1100
0000
0000
0000
0100
0000
0000
0000
,
0022
0000
0000
0000
0000
0000
0000
0000
0100
0000
0000
0000
0000
0000
0000
0033
1000
0000
0000
0000
1000
0000
0000
0000
0010
0000
0000
0000
0111
0000
0000
0000
,
0000
0000
1110
0000
0000
0000
0111
0000
0000
0000
1110
0000
0001
0010
0100
1000
,
0111
0001
1110
0100
1011
0010
1101
1000
,
0111
0100
1011
0001
1101
1000
1110
0010
,
1101
0001
1110
0010
0111
0100
1011
1000
,
0111
0010
1110
0100
1011
0001
1101
1000
,
0220
0000
0000
0000
0000
0000
0000
0000
0001
0000
0000
0000
0001
0000
0000
0330
2002
0000
0000
0000
0100
0000
0000
3003
0110
0000
0000
0000
0220
0000
0000
0000
,
1000
0000
0000
0000
1000
0000
0000
0330
0001
0000
0000
0000
1000
0000
0000
0000
0010
0000
0000
0000
0100
0000
0000
0000
0022
0000
0000
0000
0000
0000
0000
0033
,
1100
0010
1100
0001
0110
1000
0011
1101
,
0000
0000
1011
0000
0000
0000
0111
0000
1000
0100
0010
0100
0001
0010
0100
1000
,
0011
0011
0011
0011
0011
0011
1000
0011
,
0010
0000
0000
0000
2200
0000
0000
0000
0010
0000
0000
0000
0000
0000
0000
0000
0001
0000
0000
0000
0001
0000
0000
0000
0010
0000
0000
3300
0001
0000
0010
0000
,
1100
1100
0011
0011
1100
0011
1000
0110
,
1000
0000
0000
0000
0001
0000
0000
0000
0022
0000
0000
0000
0000
0000
0000
0033
0100
0000
0000
0000
0100
0000
0000
0000
0001
0000
0000
0000
0010
0000
0000
0000
,
2000
0000
0000
0000
0000
0000
0000
3000
0010
0000
0000
0000
0020
0000
0000
0000
0100
0000
0000
0030
0100
0000
0000
0000
0200
0000
0000
0000
0001
0000
0000
0300
,
0001
0000
0000
0000
0002
0000
0000
0000
1000
0000
0000
0003
1000
0000
0000
0000
2000
0000
0000
0000
0001
0000
0000
3000
0110
0000
0000
0000
1000
0000
0100
0000
,
0021
0000
0000
0000
0000
0000
0000
0000
0001
0000
0000
0000
0000
0000
0000
0030
1100
0000
0000
0000
0011
0000
0000
0000
1100
0000
0000
0000
1200
0000
0000
0000
,
0000
0000
0000
0000
0010
0000
0000
0000
0010
0000
0000
0000
0000
0000
0000
0000
1000
0000
0000
0000
0001
0000
0000
0300
0001
0000
0010
0000
0100
0000
1000
0000
,
0111
0111
0111
0000
1110
1110
0000
1011
,
0000
0000
0000
0000
1101
0000
0000
0000
1101
0000
0000
0000
0000
0000
0000
0000
0220
0000
0000
0000
0001
0000
0000
0000
0000
0000
0000
0000
0000
0000
0000
0330
,
1001
0100
0011
0000
1100
0000
0101
0000
1010
0001
0110
0000
1001
0000
1100
0000
,
0011
1000
0110
0000
1001
0000
1001
0000
0011
0100
0011
0000
1100
0010
1100
0000
,
1002
0000
1000
0000
0110
0000
0000
0003
1100
0000
0000
0000
0101
0000
0000
0000
0011
0000
1000
0000
0110
0000
0000
0000
1001
0000
0000
0000
1001
0000
0200
0000
,
1010
0000
0001
0300
1010
0000
0000
0000
0011
0000
0000
0000
1100
0000
0000
0000
1011
0000
0000
0000
0000
0000
0000
0000
1011
0000
0000
0000
0000
0000
0000
0000
,
1110
0000
0000
0000
0100
0000
0001
0000
2020
0000
0000
0000
0000
0000
0000
0000
0000
0000
0000
0000
0000
0000
0000
3030
0101
0000
0000
0000
0000
0000
0000
0000
,
1110
0000
1011
0100
1011
0100
1101
0001
,
1101
0000
0111
1000
0111
1000
1110
0001
,
1110
0001
1011
0100
1011
0100
1101
0001
,
1110
1000
0111
0010
1011
0100
0022
0000
,
1000
0000
0000
0000
1000
0000
0000
0033
0100
0000
0000
0000
0010
0000
0000
0000
1100
0000
0000
0000
0010
0000
0000
0000
2200
0000
0000
0000
0000
0000
0000
0000
,
0001
0000
0000
0000
0001
0000
0000
3300
0022
0000
0000
0000
0000
0000
0000
0033
2200
0000
0000
0000
0000
0000
0000
3300
0000
0000
0000
0000
0001
0000
0010
0000
,
1000
0100
0010
0001
1100
0000
1100
0000
0011
0000
1100
0000
0011
0000
0000
0000
,
1100
0011
1010
0101
1010
0000
0011
1001
,
0110
0000
0000
0000
1001
0000
0000
0000
2200
0000
0000
0000
0000
0000
0000
3300
0011
0000
0000
0000
1100
0000
0000
0000
0000
0000
0000
0000
0011
0000
0000
0000
,
1010
0000
0000
0000
0202
0000
0000
0000
0000
0000
0000
0303
1010
0000
0000
0000
1001
0000
0000
0000
1100
0000
0000
0000
0011
0000
0000
0000
1100
0000
0000
0000
,
0011
1100
0101
1010
0101
1001
0110
0000
,
1100
0101
1010
0011
1100
0000
0101
1010
,
0011
1100
0111
0111
1000
0001
1110
1110
,
0001
0100
1011
1011
1000
0010
1111
2211
,
0000
0000
0000
0000
0000
0000
0000
0000
0000
0000
0000
3300
0000
0000
0000
0000
0000
0000
0000
0000
0000
0000
0000
0000
0000
0000
0000
0000
0000
0000
0000
0000
,
0000
0000
0000
0000
,
0000
0000
0000
0000
,
0000
0000
0000
0000
,
0000
0000
0000
0000
,
0000
0000
0000
0000
,
0000
0000
0000
0000
,
0000
0000
0000
0000
,
0000
0000
0000
0000
,
0000
0000
0000
0000
,
0000
0000
0000
0000
,
0000
0000
0000
0000
,
0000
0000
0000
0000
,
0000
0000
0000
0000
,
0000
0000
0000
0000
,
0000
0000
0000
0000
,
0000
0000
0000
0000
,
0000
0000
0000
0000
,
0000
0000
0000
0000
;
